<?xml version="1.0" encoding="UTF-8"?>
<svg xmlns="http://www.w3.org/2000/svg" xmlns:xlink="http://www.w3.org/1999/xlink" width="264mm" height="196mm" fill-rule="evenodd" stroke-linejoin="round" stroke-width="28.222" preserveAspectRatio="xMidYMid" version="1.2" viewBox="0 0 26400 19600" xml:space="preserve">
 <defs class="ClipPathGroup">
  <clipPath id="presentation_clip_path">
   <rect width="29700" height="21000"></rect>
  </clipPath>
  
 </defs>
 <defs>
  <font id="EmbeddedFont_1" vert-adv-y="1024" vert-origin-x="512" vert-origin-y="768">
   
   
   <glyph d="M 305,0 L 680,0 805,502 C 817,555 828,609 838,664 848,720 857,778 866,838 L 869,838 C 880,777 890,719 901,663 911,607 922,553 934,500 L 1059,0 1440,0 1704,1016 1440,1016 1319,516 C 1307,464 1296,411 1285,356 1275,302 1263,242 1251,178 L 1247,178 C 1236,241 1225,301 1214,356 1203,412 1192,465 1180,516 L 1059,1016 690,1016 572,516 C 559,463 548,408 537,352 526,296 515,238 506,178 L 502,178 C 491,240 480,299 470,355 459,410 447,464 434,516 L 312,1016 31,1016 305,0 Z" unicode="w"></glyph>
   <glyph d="M 133,1016 L 133,315 C 133,199 157,114 207,60 256,7 334,-20 440,-19 505,-19 566,-8 624,13 683,34 742,64 803,102 L 817,0 1042,0 1042,1016 770,1016 770,295 C 723,263 681,239 642,223 604,208 568,200 534,200 490,199 458,210 436,235 415,260 405,305 405,370 L 405,1016 133,1016 Z" unicode="u"></glyph>
   <glyph d="M 29,1016 L 29,813 176,813 176,258 C 175,161 196,91 240,46 284,2 361,-20 468,-19 511,-19 551,-16 588,-10 626,-5 660,2 692,12 L 669,206 C 650,200 631,196 611,193 592,189 572,188 550,188 515,187 489,197 472,218 456,239 448,276 448,327 L 448,813 669,813 669,1016 448,1016 448,1338 176,1301 176,1016 29,1016 Z" unicode="t"></glyph>
   <glyph d="M 84,18 C 131,6 177,-4 222,-11 268,-17 316,-21 367,-21 525,-20 639,7 710,62 780,116 814,195 813,297 813,355 804,402 785,439 767,475 737,507 696,533 655,559 601,585 535,611 482,631 441,649 412,663 383,677 363,690 352,703 341,716 335,730 336,746 336,778 351,802 379,817 407,831 448,838 502,838 541,838 579,835 618,830 656,824 694,817 731,807 L 758,1004 C 723,1014 685,1021 642,1027 600,1033 557,1037 512,1037 369,1037 262,1011 191,960 119,908 84,830 84,725 84,673 93,629 110,595 128,560 156,530 194,504 233,479 284,453 346,428 403,405 447,387 478,372 509,357 530,343 542,329 554,315 560,298 559,278 559,245 545,220 515,203 486,186 440,178 379,178 339,178 297,181 252,188 208,195 160,204 109,217 L 84,18 Z" unicode="s"></glyph>
   <glyph d="M 146,0 L 418,0 418,723 C 459,749 495,769 527,783 559,798 588,805 615,805 632,805 647,804 661,801 675,797 688,793 701,787 L 733,1026 C 721,1033 708,1039 695,1042 681,1045 665,1047 647,1047 603,1046 560,1032 517,1006 474,980 430,948 385,910 L 369,1016 146,1016 146,0 Z" unicode="r"></glyph>
   <glyph d="M 1032,514 C 1032,654 1014,763 978,840 942,918 889,971 820,1002 751,1032 666,1046 565,1045 466,1046 381,1030 310,997 240,964 186,908 149,828 111,749 92,640 92,502 92,363 110,255 146,177 181,100 233,46 302,15 371,-15 456,-30 557,-29 656,-30 741,-14 812,19 883,53 937,109 975,188 1013,268 1032,376 1032,514 Z M 758,508 C 758,419 751,350 738,302 724,254 702,221 673,203 644,185 607,177 561,178 515,177 478,185 449,203 421,221 399,255 386,303 372,351 366,420 366,510 366,599 372,667 386,714 399,762 421,795 449,813 478,831 515,839 561,838 607,839 644,831 673,813 702,795 724,762 738,714 751,666 758,597 758,508 Z" unicode="o"></glyph>
   <glyph d="M 146,0 L 418,0 418,724 C 464,755 506,778 545,793 583,808 620,816 653,816 696,817 728,806 749,781 770,756 780,711 780,646 L 780,0 1052,0 1052,701 C 1052,817 1028,902 978,956 929,1009 851,1036 745,1035 681,1035 619,1024 561,1003 504,982 445,952 385,914 L 369,1016 146,1016 146,0 Z" unicode="n"></glyph>
   <glyph d="M 146,0 L 418,0 418,724 C 464,755 505,778 541,793 578,808 612,816 643,816 681,817 710,806 730,781 750,756 760,711 760,646 L 760,0 1032,0 1032,650 C 1032,665 1031,678 1031,689 1030,701 1029,711 1028,720 1077,752 1119,777 1156,792 1193,808 1226,816 1255,816 1295,817 1325,806 1346,781 1366,756 1376,711 1376,646 L 1376,0 1648,0 1648,701 C 1648,817 1624,902 1575,956 1527,1009 1451,1036 1349,1035 1288,1035 1229,1024 1172,1003 1116,982 1054,950 989,908 971,945 942,975 903,998 863,1022 807,1034 733,1035 673,1035 614,1024 559,1003 503,982 445,952 385,914 L 369,1016 146,1016 146,0 Z" unicode="m"></glyph>
   <glyph d="M 146,0 L 418,0 418,1511 146,1511 146,0 Z" unicode="l"></glyph>
   <glyph d="M 146,0 L 418,0 418,502 735,0 1057,0 688,547 1049,1016 746,1016 418,565 418,1511 146,1511 146,0 Z" unicode="k"></glyph>
   <glyph d="M 146,0 L 418,0 418,1016 146,1016 146,0 Z M 436,1342 C 438,1399 427,1438 405,1459 382,1480 341,1490 281,1489 222,1490 181,1480 158,1459 135,1438 125,1399 126,1342 125,1285 135,1246 158,1225 181,1203 222,1193 281,1194 341,1193 382,1203 405,1225 427,1246 438,1285 436,1342 Z" unicode="i"></glyph>
   <glyph d="M 146,0 L 418,0 418,724 C 464,755 506,778 545,793 583,808 620,816 653,816 696,817 728,806 749,781 770,756 780,711 780,646 L 780,0 1052,0 1052,701 C 1052,817 1028,902 978,956 929,1009 851,1036 745,1035 680,1034 621,1024 567,1005 512,985 459,960 408,929 L 406,931 C 410,972 413,1010 415,1044 417,1079 418,1113 418,1147 L 418,1511 146,1511 146,0 Z" unicode="h"></glyph>
   <glyph d="M 1077,1016 L 758,1016 C 732,1025 701,1033 664,1037 627,1042 583,1045 534,1045 385,1046 276,1018 205,960 134,903 99,812 100,687 100,612 111,552 133,507 154,461 184,424 221,398 188,378 163,355 146,328 128,301 119,271 119,236 119,200 129,169 147,143 166,117 194,96 230,80 183,57 143,25 109,-16 76,-57 59,-108 57,-170 57,-232 72,-284 103,-328 134,-371 185,-404 254,-427 323,-449 415,-461 528,-461 645,-460 740,-446 813,-416 886,-387 940,-347 975,-295 1009,-243 1026,-183 1026,-115 1027,-37 1008,21 970,60 932,99 870,129 782,148 745,156 704,165 658,175 613,186 563,197 510,209 456,220 421,231 404,243 387,255 379,269 381,285 381,296 384,306 390,315 397,324 407,332 420,340 433,336 449,333 469,330 488,328 510,326 533,326 683,325 793,354 863,412 933,470 968,561 967,686 967,720 963,748 957,772 950,795 940,814 928,830 952,834 976,837 1002,841 1028,844 1053,847 1078,850 L 1077,1016 Z M 654,-37 C 692,-45 720,-57 738,-74 756,-90 764,-112 764,-140 765,-178 748,-210 713,-237 678,-264 619,-278 536,-279 454,-278 397,-266 366,-241 334,-216 319,-183 321,-142 322,-104 334,-72 358,-47 381,-22 411,-3 448,10 483,3 517,-5 551,-13 586,-21 619,-29 653,-37 L 654,-37 Z M 707,687 C 708,619 694,572 667,545 640,518 596,505 535,506 472,505 428,518 401,545 374,573 361,620 362,687 361,754 374,801 401,827 428,854 471,866 532,865 594,866 638,853 666,827 694,800 707,753 707,687 Z" unicode="g"></glyph>
   <glyph d="M 185,0 L 457,0 457,813 719,813 719,1016 457,1016 457,1153 C 456,1212 468,1257 493,1288 518,1318 561,1333 623,1333 648,1333 673,1332 697,1329 720,1326 743,1323 764,1319 L 787,1517 C 757,1525 725,1530 692,1534 659,1538 625,1540 590,1540 486,1540 404,1525 345,1495 286,1465 244,1420 220,1359 196,1298 184,1221 185,1128 L 185,1016 34,1016 34,813 185,813 185,0 Z" unicode="f"></glyph>
   <glyph d="M 893,221 C 843,210 796,202 752,196 708,189 661,186 610,186 551,185 504,191 469,203 434,215 408,238 392,273 376,308 368,360 366,428 L 955,428 C 956,455 957,481 959,507 960,532 961,558 961,584 961,704 947,798 919,865 890,933 846,980 787,1006 727,1033 650,1046 557,1045 463,1046 381,1030 312,997 242,965 188,909 150,829 112,750 93,641 92,502 92,358 110,249 147,173 183,97 236,46 306,18 375,-10 460,-23 561,-21 627,-21 688,-17 745,-10 802,-2 858,8 914,20 L 893,221 Z M 366,602 C 368,664 376,713 390,748 404,782 424,807 451,820 477,834 510,841 549,840 589,841 621,834 646,821 671,807 689,783 701,749 713,714 719,665 719,602 L 366,602 Z" unicode="e"></glyph>
   <glyph d="M 778,0 L 1001,0 1001,1511 729,1511 729,1192 C 729,1157 730,1122 732,1089 734,1055 737,1020 741,984 L 739,982 C 706,999 670,1012 634,1021 597,1030 559,1035 518,1035 437,1036 365,1018 300,983 236,947 185,890 148,810 110,731 91,625 90,494 90,364 105,261 133,186 162,111 202,58 255,26 307,-5 369,-20 440,-19 501,-18 557,-7 608,14 659,36 710,64 762,100 L 778,0 Z M 729,291 C 686,261 649,238 615,223 582,208 551,200 522,200 488,199 459,206 435,222 411,238 393,267 381,311 368,355 362,418 362,502 363,587 372,653 391,700 410,747 435,780 466,799 497,818 530,827 565,826 594,826 622,822 648,813 674,804 701,791 729,775 L 729,291 Z" unicode="d"></glyph>
   <glyph d="M 792,217 C 757,207 721,200 686,194 650,189 617,186 587,186 533,185 490,193 458,211 425,228 402,260 387,307 373,355 366,422 366,510 366,598 375,665 392,712 409,758 434,790 466,806 499,823 539,831 585,830 623,830 659,828 693,823 727,818 760,811 794,801 L 819,1002 C 778,1013 736,1021 691,1027 647,1034 602,1037 556,1037 464,1038 383,1023 313,991 244,959 190,904 151,826 112,747 93,640 92,502 92,365 108,258 141,182 174,106 223,53 290,23 356,-8 441,-22 542,-21 587,-21 633,-17 680,-10 728,-3 772,7 812,18 L 792,217 Z" unicode="c"></glyph>
   <glyph d="M 146,0 L 369,0 379,49 C 418,27 458,11 497,-1 537,-13 581,-19 629,-19 709,-20 781,-2 846,33 910,69 961,127 999,206 1037,286 1056,391 1057,523 1057,653 1042,755 1014,830 985,905 945,958 892,990 840,1021 778,1036 707,1035 646,1034 591,1023 543,1003 495,983 450,959 410,933 L 408,935 C 412,976 414,1013 416,1046 417,1080 418,1113 418,1147 L 418,1511 146,1511 146,0 Z M 418,726 C 461,756 498,778 532,793 565,808 596,816 625,816 659,817 687,810 711,794 735,778 753,749 766,705 779,661 785,598 785,515 785,430 775,364 756,316 737,269 711,236 681,217 650,198 616,189 580,190 552,190 524,194 498,203 472,212 445,225 418,241 L 418,726 Z" unicode="b"></glyph>
   <glyph d="M 647,625 L 567,625 C 450,625 355,611 283,583 211,556 159,516 126,465 94,414 78,353 78,283 80,180 107,104 161,55 214,5 284,-19 371,-19 432,-18 486,-7 535,13 584,34 633,60 680,92 L 694,0 919,0 919,709 C 920,786 908,849 883,897 859,945 818,981 761,1003 703,1026 626,1037 528,1037 465,1037 404,1033 345,1024 285,1016 226,1005 168,992 L 195,793 C 244,804 292,812 339,819 386,826 434,830 481,830 542,830 585,819 610,796 636,774 648,740 647,695 L 647,625 Z M 647,451 L 647,271 C 606,242 569,219 536,204 503,188 469,180 434,180 400,180 373,189 352,209 331,229 320,260 320,303 318,352 337,388 376,413 415,438 484,451 582,451 L 647,451 Z" unicode="a"></glyph>
   <glyph d="M 49,0 L 981,0 981,221 373,221 967,1247 967,1423 84,1423 84,1202 643,1202 49,176 49,0 Z" unicode="Z"></glyph>
   <glyph d="M 369,0 L 778,0 944,821 C 959,896 973,969 986,1038 999,1107 1011,1176 1022,1243 L 1024,1243 C 1033,1176 1044,1108 1056,1039 1068,969 1081,897 1096,821 L 1264,0 1673,0 1993,1423 1720,1423 1557,663 C 1541,591 1527,515 1514,436 1500,356 1486,271 1471,180 L 1469,180 C 1454,271 1441,355 1427,434 1414,513 1400,589 1385,663 L 1227,1423 832,1423 672,663 C 657,591 643,515 630,435 618,355 605,270 592,180 L 586,180 C 572,271 559,356 546,436 534,515 520,591 504,663 L 340,1423 49,1423 369,0 Z" unicode="W"></glyph>
   <glyph d="M 123,1423 L 123,575 C 122,430 138,313 172,225 206,136 262,71 341,31 420,-10 526,-30 661,-29 798,-29 907,-8 988,36 1069,79 1128,146 1163,238 1198,330 1215,448 1214,593 L 1214,1423 938,1423 938,581 C 939,485 932,408 917,350 902,292 875,250 836,224 798,198 743,185 672,186 599,185 543,198 503,224 464,249 436,291 421,349 406,407 398,483 399,579 L 399,1423 123,1423 Z" unicode="U"></glyph>
   <glyph d="M 108,24 C 168,9 228,-3 289,-12 349,-20 411,-25 475,-25 657,-24 791,14 876,87 962,161 1004,263 1003,393 1004,463 993,522 972,568 950,615 912,658 859,698 805,737 731,781 637,829 560,868 500,900 458,927 416,953 387,978 371,1001 355,1025 347,1052 348,1083 347,1133 367,1171 408,1198 448,1225 512,1239 600,1239 659,1239 712,1235 758,1228 804,1220 849,1211 894,1198 L 923,1405 C 879,1417 831,1428 777,1436 724,1444 666,1448 604,1448 424,1446 293,1411 211,1342 129,1273 89,1179 90,1061 89,990 100,931 123,884 145,836 183,793 235,754 287,715 357,673 446,629 527,588 588,554 631,527 675,500 704,474 720,449 736,424 744,395 743,360 743,303 722,260 679,230 636,200 570,184 479,184 417,184 358,188 302,197 247,205 191,217 135,231 L 108,24 Z" unicode="S"></glyph>
   <glyph d="M 152,0 L 428,0 428,625 522,625 848,0 1161,0 799,664 C 909,685 989,728 1039,791 1090,854 1115,939 1114,1046 1115,1144 1099,1220 1066,1275 1033,1330 978,1369 902,1391 825,1413 723,1424 594,1423 L 152,1423 152,0 Z M 428,832 L 428,1214 588,1214 C 653,1214 704,1209 741,1198 778,1188 805,1170 820,1144 835,1118 843,1083 842,1038 843,992 836,954 821,923 806,893 780,870 743,855 706,839 654,832 588,832 L 428,832 Z" unicode="R"></glyph>
   <glyph d="M 1255,719 C 1255,869 1243,992 1220,1088 1196,1184 1161,1259 1114,1312 1067,1365 1008,1402 937,1422 867,1443 784,1453 690,1452 595,1453 512,1442 439,1420 366,1398 305,1360 256,1305 207,1250 169,1174 144,1076 119,979 106,855 106,704 106,554 118,431 142,335 165,239 200,164 248,111 295,58 354,21 424,1 495,-20 577,-30 672,-29 766,-30 849,-19 922,3 994,25 1055,63 1105,118 1154,173 1191,249 1217,347 1242,444 1255,568 1255,719 Z M 979,710 C 979,601 973,512 962,443 950,374 932,320 908,283 884,246 853,220 815,206 777,192 732,185 680,186 611,184 555,197 511,225 468,252 436,304 415,380 395,457 385,567 385,713 385,822 390,911 402,980 413,1049 431,1103 455,1140 479,1177 509,1203 546,1217 584,1231 628,1238 680,1237 749,1239 806,1226 850,1198 895,1171 927,1119 948,1043 969,966 979,856 979,710 Z" unicode="O"></glyph>
   <glyph d="M 107,0 L 379,0 435,819 C 440,892 443,963 445,1031 447,1099 449,1170 451,1243 L 453,1243 C 470,1170 488,1099 506,1030 523,961 541,891 560,819 L 773,0 1135,0 1350,819 C 1369,894 1388,965 1405,1033 1422,1100 1438,1171 1454,1245 L 1459,1243 C 1460,1168 1461,1097 1463,1029 1466,962 1469,892 1473,819 L 1528,0 1817,0 1698,1423 1270,1423 1065,663 C 1045,588 1028,515 1012,445 997,375 981,298 965,215 L 959,215 C 947,272 936,324 926,373 916,421 905,468 894,515 882,561 870,610 857,661 L 650,1423 226,1423 107,0 Z" unicode="M"></glyph>
   <glyph d="M 152,0 L 936,0 936,223 428,223 428,1423 152,1423 152,0 Z" unicode="L"></glyph>
   <glyph d="M 152,0 L 428,0 428,1423 152,1423 152,0 Z" unicode="I"></glyph>
   <glyph d="M 152,0 L 428,0 428,619 948,619 948,0 1222,0 1222,1423 948,1423 948,842 428,842 428,1423 152,1423 152,0 Z" unicode="H"></glyph>
   <glyph d="M 1145,831 L 641,831 641,618 883,618 883,221 C 859,211 831,204 798,197 766,191 731,188 692,188 639,187 592,193 554,207 515,220 483,245 458,281 433,318 415,371 403,440 391,510 385,600 385,712 385,823 392,913 406,982 421,1051 443,1104 473,1140 503,1177 541,1201 587,1215 633,1228 688,1234 752,1233 806,1233 860,1229 914,1222 968,1214 1025,1203 1084,1190 L 1114,1399 C 1058,1414 998,1426 933,1435 869,1443 803,1448 735,1448 636,1449 547,1438 469,1416 392,1394 326,1355 272,1300 218,1246 177,1170 149,1073 120,976 106,853 106,704 106,555 117,432 139,337 161,241 196,167 242,114 289,61 350,24 424,3 499,-18 588,-28 692,-27 777,-27 858,-19 937,-5 1016,10 1085,29 1145,53 L 1145,831 Z" unicode="G"></glyph>
   <glyph d="M 152,0 L 969,0 969,215 428,215 428,623 930,623 930,834 428,834 428,1208 969,1208 969,1423 152,1423 152,0 Z" unicode="E"></glyph>
   <glyph d="M 152,0 L 611,0 C 756,-2 874,19 965,61 1056,104 1123,178 1165,283 1207,389 1227,535 1227,723 1227,866 1216,983 1194,1075 1173,1167 1138,1238 1090,1289 1042,1339 980,1375 902,1394 825,1414 731,1424 621,1423 L 152,1423 152,0 Z M 428,215 L 428,1208 613,1208 C 675,1209 728,1203 771,1191 814,1178 849,1155 876,1120 902,1086 921,1036 933,971 945,905 951,820 951,715 951,609 945,524 933,458 920,392 900,341 873,306 846,271 811,246 768,233 725,220 673,214 613,215 L 428,215 Z" unicode="D"></glyph>
   <glyph d="M 25,0 L 295,0 400,358 873,358 977,0 1266,0 848,1423 437,1423 25,0 Z M 443,569 L 541,917 C 558,975 574,1031 589,1085 603,1139 618,1194 633,1251 L 635,1251 C 650,1196 665,1142 680,1089 694,1036 710,981 727,925 L 828,569 443,569 Z" unicode="A"></glyph>
   <glyph d="M 178,1096 L 178,347 C 236,354 287,359 331,362 376,365 422,367 471,367 558,368 621,353 662,324 703,294 723,247 723,180 725,110 704,55 660,15 617,-24 542,-44 436,-45 382,-45 330,-42 280,-36 230,-31 181,-23 133,-12 L 110,-221 C 158,-231 208,-238 261,-244 313,-251 369,-254 428,-254 620,-253 761,-212 851,-131 941,-51 986,61 985,205 984,337 950,433 881,491 811,550 711,579 579,578 547,578 516,577 486,574 456,572 426,570 397,568 L 397,869 919,869 919,1096 178,1096 Z" unicode="5"></glyph>
   <glyph d="M 631,-225 L 873,-225 873,72 1018,72 1018,299 873,299 873,1096 508,1096 58,283 58,72 631,72 631,-225 Z M 295,299 L 631,883 631,299 295,299 Z" unicode="4"></glyph>
   <glyph d="M 93,-219 C 142,-230 196,-239 253,-245 311,-251 373,-254 439,-254 561,-253 661,-234 740,-197 819,-159 878,-108 916,-43 954,22 973,97 973,182 971,270 946,338 897,388 847,437 783,469 705,483 778,515 836,559 878,617 920,675 941,747 942,834 942,927 907,998 837,1047 768,1096 663,1121 522,1121 455,1121 388,1116 324,1108 259,1099 196,1087 135,1072 L 166,869 C 212,882 259,893 307,901 355,908 403,912 451,912 525,912 581,901 619,879 657,856 676,819 676,768 677,735 665,702 642,671 618,639 577,613 519,593 460,572 380,562 277,561 L 277,360 C 396,360 486,353 548,340 610,326 652,305 674,276 696,247 706,211 705,166 705,101 680,49 632,12 583,-25 513,-44 420,-45 368,-45 317,-42 266,-36 215,-31 167,-23 119,-12 L 93,-219 Z" unicode="3"></glyph>
   <glyph d="M -33,-225 L 211,-225 854,1511 610,1511 -33,-225 Z" unicode="/"></glyph>
   <glyph d="M 414,132 C 415,190 405,230 382,252 359,274 318,285 256,284 196,285 155,274 133,252 110,230 100,190 101,132 100,75 110,36 133,14 155,-8 196,-18 256,-17 318,-18 359,-8 382,14 405,36 415,75 414,132 Z" unicode="."></glyph>
   <glyph d="M 133,428 L 758,428 758,661 133,661 133,428 Z" unicode="-"></glyph>
   <glyph unicode=" "></glyph>
  </font>
</defs>
</svg>
